The Walking Dead - 9x05 What Comes After - Cosa c e dopo.720p.H26...

seeders: 66
leechers: 14
updated:
Added by robbyrs in Other
Torrent reliable.


# LIMITED VPN OFFER #
strongly advises you to use NordVPN while downloading torrents.
NordVPN is the safest VPN on the market, and the fastest VPN as well.
No IP Log is saved using NordVPN, avoid other VPN providers and choose the safest one.
Click here and buy NordVPN it's on rebates today!
We were able to verify your IP: 95.181.217.146, country: Russian Federation.
If we can do that, others can too, protect your privacy with NordVPN.
is trying the best for you!
# LIMITED VPN OFFER #


Description

The Walking Dead - 9x05 What Comes After - Cosa c e dopo.720p.H264.ita.eng.sub.ita.eng-MIRCrew


 

La nona stagione della serie televisiva The Walking Dead, composta da sedici episodi, è trasmessa in prima visione assoluta negli Stati Uniti d'America dall'emittente AMC dal 7 ottobre 2018

È trascorso un anno e mezzo dalla fine della guerra contro i salvatori.

In una Alexandria ricostruita e prospera, Rick, ora con i capelli più corti e grigi, guarda felicemente Michonne dipingere con Judith. I tre vanno fuori dalle mura per vedere uno stormo di uccelli nel campo. 

 Episodi:


1 Un nuovo inizio 
2 The Bridge - il ponte
3 Warning Signs 
4 The Obliged 
5 What Comes After 
6 Who Are You Now 11 novembre 2018 12 novembre 2018
7 Stradivarius 18 novembre 2018 19 novembre 2018
8 Evolution 25 novembre 2018 26 novembre 2018 

 
 
 
 


General
Unique ID : 78366567123376701684232789637766424689 (0x3AF4DA1147B8B333D444330EBDC5A871)
Complete name : he Walking Dead - 9x05 What Comes After - Cosa c e dopo.720p.H264.ita.eng.sub.ita.eng-MIRCrew\The Walking Dead - 9x05 What Comes After - Cosa c e dopo.720p.H264.ita.eng.sub.ita.eng-MIRCrew.mkv
Format : Matroska
Format version : Version 2
File size : 715 MiB
Duration : 43mn 31s
Overall bit rate : 2 298 Kbps
Movie name : MIRCrew
Encoded date : UTC 2018-11-06 21:54:47
Writing application : Lavf54.63.100
Writing library : Lavf54.63.100

Video
ID : 1
Format : AVC
Format/Info : Advanced Video Codec
Format profile : [email protected] 
Format settings, CABAC : Yes
Format settings, ReFrames : 2 frames
Codec ID : V_MPEG4/ISO/AVC
Duration : 43mn 31s
Bit rate : 1 900 Kbps
Width : 1 280 pixels
Height : 720 pixels
Display aspect ratio : 16:9
Frame rate mode : Variable
Frame rate : 25.000 fps
Color space : YUV
Chroma subsampling : 4:2:0
Bit depth : 8 bits
Scan type : Progressive
Bits/(Pixel*Frame) : 0.082
Stream size : 582 MiB (81%)
Writing library : x264 core 130 r2273
Encoding settings : cabac=1 / ref=2 / deblock=1:0:0 / analyse=0x1:0x131 / me=hex / subme=7 / psy=1 / psy_rd=1.00:0.00 / mixed_ref=0 / me_range=16 / chroma_me=1 / trellis=1 / 8x8dct=0 / cqm=0 / deadzone=21,11 / fast_pskip=1 / chroma_qp_offset=-2 / threads=3 / lookahead_threads=1 / sliced_threads=0 / nr=0 / decimate=1 / interlaced=0 / bluray_compat=0 / constrained_intra=0 / bframes=3 / b_pyramid=0 / b_adapt=1 / b_bias=0 / direct=3 / weightb=1 / open_gop=0 / weightp=2 / keyint=250 / keyint_min=25 / scenecut=40 / intra_refresh=0 / rc_lookahead=40 / rc=abr / mbtree=1 / bitrate=1900 / ratetol=1.0 / qcomp=0.60 / qpmin=10 / qpmax=69 / qpstep=4 / vbv_maxrate=24000 / vbv_bufsize=24000 / nal_hrd=none / ip_ratio=1.40 / aq=1:1.00
Language : Italian
Default : Yes
Forced : No
_STATISTICS_WRITING_APP : mkvmerge v7.1.0 ('Good Love') 32bit built on Jul 27 2014 12:59:18
_STATISTICS_WRITING_DATE_UTC : 2018-11-05 23:19:49
_STATISTICS_TAGS : BPS DURATION NUMBER_OF_FRAMES NUMBER_OF_BYTES
DURATION : 00:43:31.040000000
NUMBER_OF_FRAMES : 65276
NUMBER_OF_BYTES : 1767380562

Audio #1
ID : 2
Format : AC-3
Format/Info : Audio Coding 3
Mode extension : CM (complete main)
Codec ID : A_AC3
Duration : 43mn 31s
Bit rate mode : Constant
Bit rate : 192 Kbps
Channel(s) : 2 channels
Channel positions : Front: L R
Sampling rate : 48.0 KHz
Bit depth : 16 bits
Compression mode : Lossy
Delay relative to video : 1mn 5s
Stream size : 59.8 MiB (8%)
Title : ITA
Language : Italian
Default : Yes
Forced : Yes
DURATION : 00:43:31.136000000
NUMBER_OF_FRAMES : 81598
NUMBER_OF_BYTES : 62667264
_STATISTICS_WRITING_APP : mkvmerge v7.1.0 ('Good Love') 32bit built on Jul 27 2014 12:59:18
_STATISTICS_WRITING_DATE_UTC : 2018-11-05 23:19:49
_STATISTICS_TAGS : BPS DURATION NUMBER_OF_FRAMES NUMBER_OF_BYTES

Audio #2
ID : 3
Format : AC-3
Format/Info : Audio Coding 3
Mode extension : CM (complete main)
Codec ID : A_AC3
Duration : 43mn 31s
Bit rate mode : Constant
Bit rate : 192 Kbps
Channel(s) : 2 channels
Channel positions : Front: L R
Sampling rate : 48.0 KHz
Bit depth : 16 bits
Compression mode : Lossy
Delay relative to video : 1mn 5s
Stream size : 59.8 MiB (8%)
Title : ENG
Language : English
Default : No
Forced : No
DURATION : 00:43:31.072000000
NUMBER_OF_FRAMES : 81596
NUMBER_OF_BYTES : 125331456
_STATISTICS_WRITING_APP : mkvmerge v7.1.0 ('Good Love') 32bit built on Jul 27 2014 12:59:18
_STATISTICS_WRITING_DATE_UTC : 2018-11-05 23:19:49
_STATISTICS_TAGS : BPS DURATION NUMBER_OF_FRAMES NUMBER_OF_BYTES







Sharing Widget


Download torrent
Size: 715.4 MB
seeders:66
leechers:14
The Walking Dead - 9x05 What Comes After - Cosa c e dopo.720p.H26... - (750151270 Bytes)



To share this torrent use the code below and insert it into comments, status messages, forum posts or your signature.

Torrent: The Walking Dead - 9x05 What Comes After - Cosa c e dopo.720p.H26...

Trackers

tracker name
udp://tracker.coppersurfer.tk:6969/announce
udp://tracker.torrent.eu.org:451/announce
udp://tracker.pirateparty.gr:6969/announce
udp://tracker.opentrackr.org:1337/announce
udp://tracker.leechers-paradise.org:6969/announce
udp://tracker.eddie4.nl:6969/announce
udp://shadowshq.yi.org:6969/announce
udp://shadowshq.eddie4.nl:6969/announce
udp://inferno.demonoid.pw:3391/announce
udp://eddie4.nl:6969/announce
udp://9.rarbg.to:2730/announce
udp://9.rarbg.com:2710/announce
udp://9.rarbg.me:2780/announce
udp://62.138.0.158:6969/announce
udp://tracker.zer0day.to:1337/announce
udp://tracker.leechers-paradise.org:6969/announce
udp://coppersurfer.tk:6969/announce
µTorrent compatible trackers list

Locations

name
KickassTorrents
Torrent hash: DD26A00DA45C4F627BC7276F9028E5B574804654

# LIMITED VPN OFFER #
strongly advises you to use NordVPN while downloading torrents.
NordVPN is the safest VPN on the market, and the fastest VPN as well.
No IP Log is saved using NordVPN, avoid other VPN providers and choose the safest one.
Click here and buy NordVPN it's on rebates today!
We were able to verify your IP: 95.181.217.146, country: Russian Federation.
If we can do that, others can too, protect your privacy with NordVPN.
is trying the best for you!
# LIMITED VPN OFFER #


All Comments

*comments box temporarily disabled*
Report a bug